sex the big bang theory Fortitude ETRG black mirror windows 10 christmas 1080p 2018 ethd 1080P 2018 ita bbc 0 WWE 2 a star is born xxx the walking dead 1 fantastic beasts hindi halloween 2018 bird box anal supernatural evo bumblebee ddr The Flash titans venom ita Ralph Breaks the Internet italian ettv venom animali fantastici game of thrones a simple favor black mirror bandersnatch Bandersnatch Aquaman ita 2018 you fortitude s03 outlander mary poppins fgt the predator Evo vikings s05e15 2160p porn bohemian rhapsody ita bohemian rhapsody IT ray donovan UHD etrg tushyraw 1080p.mp4-ktr etmovies Vikings dtone Dogfart summer big bang theory español arrow ita tushy 18.12 1080p.mp4-ktr Doctor Who Jurassic World AMICI COME PRIMA 
Warning! Do not Download Without a VPN!
Your IP Address is .   Location is
Download and surf securely, stream unlimited and protect your personal data!
We strongly recommend using SpyOFF VPN!
Become Anonymous with SpyOFF
ETTV Recommended TV Shows
Letterkenny.S06.720p.HULU.WEB-DL.AAC2.0.H.264-NTb[ettv] torrent
The.ABC.Murders.S01E02.WEBRip.x264-TBS[ettv] torrent
Into.The.Dark.2018.S01E04.720p.WEBRip.x264-TBS[ettv] torrent
Deadly.Class.S01E01.Reagan.Youth.720p.AMZN.WEB-DL.DDP5.1.H.264-NTG[ettv] torrent

ETTV Recommended SD
The.Oath.2018.HDRip.XViD-ETRG torrent
When.the.Angels.Sleep.2018.HDRip.XviD.AC3-EVO torrent
Jackson.Bolt.2018.HDRip.XviD.AC3-EVO torrent
Mid90s.2018.BRRip.XviD.AC3-EVO torrent

ETTV Recommended HD
Fahrenheit 11 9 2018.1080p.Blu-ray.HEVC.DTS-HD MA.5.1-DTOne torrent
Bob Marley & The Wailers.Easy Skanking In Boston \'78.2015.Bluray.1080p.HEVC.LPCM.2.0-DTone torrent
A-X-L 2018.Multi.BluRay.1080p.HEVC.DTS-HDMA.5.1-DTOne torrent
The.Oath.2018.1080p.WEB-DL.DD5.1.H264-CMRG[EtHD] torrent

ETTV Recommended UHD
Captain.Underpants.The.First.Epic.Movie.2017.Multi.2160p.UHD.BluRay.x265.HDR.Atmos.7.1[En+Hi]-DTOne torrent
Die.Hard.1988.Multi.2160p.UHD.BluRay.X265.DTS-HDMA.5.1[En+Hi]-DTOne torrent
Exodus.Gods and Kings.2014.Multi.2160p.UHD.BluRay.x265.HDR.DTS.5.1.[En+Hi]-DTOne torrent
Inception.2010.Multi.2160p.UHD.Bluray.x265.DTS-HDMA.5.1.[En+Hi]-DTOne torrent

ETTV Recommended Cam
Aquaman.2018.HDTC.x264.AC3-ETRG torrent
Mary Poppins Returns.2018.HDCAM.XViD.AC3-ETRG torrent
The Mule 2018 HDCAM XViD.AC3-ETRG torrent
Bumblebee 2018 NEW HDTS x264 AC3-ETRG torrent

ETTV Recommended Foreign
SIMMBA.(2018).1-3.Desi.CAMRip.x264.AAC.DTOne torrent
Cars.3.2017.Multi.2160p.UHD.BluRay.x265.HDR.Atmos.7.1.[En+Hi]-DTOne torrent
Chappie.2015.Multi.2160p.UHD.BluRay.x265.HDR.Atmos.7.1[En+Hi]-DTOne torrent
Divergent.2014.Multi.2160p.UHD.BluRay.x265.HDR.DTS-HDMA.7.1[En+Hi]-DTOne torrent


Download Torrent "John Wick Chapter 2 2017.Multi.UHD.2160p.Blu-ray.x265.HDR.Atmos.7.1.[En+Hi]..."

IMDB Details
Description:

After returning to the criminal underworld to repay a debt, John Wick discovers that a large bounty has been put on his life.

Genre:

Action, Crime, Thriller

Download Torrent (Magnet)
Download Torrent (File)
Seeds: 7
Leechers: 0
Completed:
Last Checked: 29-12-2018 02:28:36


Loading...
Details
Title:John Wick Chapter 2 2017.Multi.UHD.2160p.Blu-ray.x265.HDR.Atmos.7.1.[En+Hi]...
Description:
I will seed up till 4 of You complete[color]
No More No Less
[/color]





SPECS

Source : UHD Bluray

File size                                : 16.0 GiB
Duration                                 : 2 h 2 min
Overall bit rate mode                    : Variable
Overall bit rate                         : 18.7 Mb/s

Video
Format                                   : HEVC/x265
Commercial name                          : HDR
Bit rate                                 : 13.1 Mb/s
Width                                    : 3 840 pixels
Height                                   : 1 600 pixels
Bit depth                                : 10 bits
Color primaries                          : BT.2020
Transfer characteristics                 : PQ
Matrix coefficients                      : BT.2020 non-constant
Mastering display color primaries        : Display P3
Mastering display luminance              : min: 0.0050 cd/m2, max: 1000 cd/m2


Audio #1
Format                                   : MLP FBA 16-ch
Format/Info                              : Meridian Lossless Packing FBA with 16-channel presentation
Commercial name                          : Dolby TrueHD with Dolby Atmos
Codec ID                                 : A_TRUEHD
Duration                                 : 2 h 2 min
Bit rate mode                            : Variable
Bit rate                                 : 4 603 kb/s
Maximum bit rate                         : 7 806 kb/s
Channel(s)                               : 8 channels
Channel layout                           : L R C LFE Ls Rs Lb Rb
Sampling rate                            : 48.0 kHz
Frame rate                               : 1 200.000 FPS (40 SPF)
Compression mode                         : Lossless
Stream size                              : 3.93 GiB (25%)
Language                                 : English
Default                                  : Yes
Forced                                   : No
Number of dynamic objects                : 15
Bed channel count                        : 1 channel
Bed channel configuration                : LFE

Audio #2
ID                                       : 3
Format                                   : AC-3
Format/Info                              : Audio Coding 3
Commercial name                          : Dolby Digital
Codec ID                                 : A_AC3
Duration                                 : 2 h 2 min
Bit rate mode                            : Constant
Bit rate                                 : 640 kb/s
Channel(s)                               : 6 channels
Channel layout                           : L R C LFE Ls Rs
Sampling rate                            : 48.0 kHz
Frame rate                               : 31.250 FPS (1536 SPF)
Bit depth                                : 16 bits
Compression mode                         : Lossy
Stream size                              : 560 MiB (3%)
Language                                 : English
Service kind                             : Complete Main
Default                                  : No
Forced                                   : No

Audio #3
ID                                       : 4
Format                                   : AC-3
Format/Info                              : Audio Coding 3
Commercial name                          : Dolby Digital
Codec ID                                 : A_AC3
Duration                                 : 2 h 2 min
Bit rate mode                            : Constant
Bit rate                                 : 224 kb/s
Channel(s)                               : 2 channels
Channel layout                           : L R
Sampling rate                            : 48.0 kHz
Frame rate                               : 31.250 FPS (1536 SPF)
Bit depth                                : 16 bits
Compression mode                         : Lossy
Stream size                              : 196 MiB (1%)
Language                                 : Hindi


Subs:
En  Sp

[size=4]Request for reseed of my Old Releases: HERE[/size]

[email protected]
Category:Movies > UltraHD/4K
Lang:English  English
Total Size:15.96 GB
Info Hash:8bbaf4b6da5e14abeae09e90fd93408aea810125
Added By:DTOne
Date Added:29-12-2018 02:28:32

  

Files

File List: 
 File Size
A DT0ne Release !!!.txt287.00 B
John Wick Chapter 2 2017.Multi.UHD.2160p.Blu-ray.x265.HDR.Atmos.7.1.[En+Hi]-DTOne.mkv15.96 GB
Torrent downloaded from Desitorrents.tv.txt28.00 B



Loading...
Comments

There are currently no comments. Be the first one to write something !

Disclaimer: None of the files shown here are actually hosted or transmitted by this server. The links are provided solely by this site's users. The site moderation is also a service provided by the site's users. The administrator of this site (ettv.tv) cannot be held responsible for what its users post, or any other actions of its users. You may not use this site to distribute or download any material when you do not have the legal rights to do so. It is your own responsibility to adhere to these terms.

Sitemap Watch movie | Morrissey | Women A-line Going out Sleeveless Solid Dress